bideo bat sortu argazki 1 eta audio bategaz ffmpeg erabilitze

Bueno ba bididxo bat sortuku argazki 1 eta audio bategaz ffmpeg-gaz:

Argazkidxen informaziñue atara


ffmpeg -i argazkidxe.jpg

hau agertuko da:


Input #0, image2, from '1.jpg':
  Duration: 00:00:00.04, start: 0.000000, bitrate: N/A
    Stream #0.0: Video: mjpeg, yuvj420p, 400x387 [PAR 100:100 DAR 400:387], 25 tbr, 25 tbn, 25 tbc

ffmpeg-ra traduzite:


-loop_input -f image2 -s 400x387 -r 1

Audixuen informaziñue atara:


ffmpeg -i audio.ogg

  Duration: 00:04:45.58
    Stream #0.1: Audio: vorbis, 44100 Hz, stereo, s16, 128 kb/s

ffmpeg-ra traduzite:


-acodec libvorbis -ab 128k -ar 44100 -ac 2 -t 00:04:46

Oin dana batunde:


ffmpeg -loop_input -f image2 -i argazkidxe.jpg -r 1 -i audio.ogg -vcodec libtheora \
-s 400x387 -r 1 -acodec libvorbis -ab 128k -ar 44100 -t 00:04:46 output.ogg

Bueno ba hauri da dana, okin kontutan frame per second 1 imintzagule (-r 1) segunduko frame bat erakusteko, eztakolako zentzun handirik 25 botatie argazki bardiñe badan eta 0 ezindxe imiñi :)

Leave a Reply

Your email address will not be published. Required fields are marked *